Skip to main content

Eddie From Ohio Live at Club Passim on 2005-07-13




Setlist

1. Big Noise
2. Stay
3. And the Rain Crashed Down
4. Minnesota 1945
5. Swing Low, Sweet Chariot
6. The Ghosts of St. George's Drive
7. Number Six Driver
8. Fly
9. 30 Second Love Affair
10. Fifty Pounds
11. The Three Fine Daughters of Farmer Brown
12. Drive
13. Old Dominion
14. It's Alright


Collection EddieFromOhio
Band/Artist Eddie From Ohio
Venue Club Passim
Location Cambridge, MA

Source DSBD (48.0)
Lineage Tascam DA-20 MKII > Tascam HD-P2 > Sony Soundforge 8.0 (44.1) > CD Wave > Flac
Taped by Brandon Smith
Transferred by Patrick Price

Notes

length expanded size cdr WAVE problems fmt ratio filename
4:58.51 52687196 B --- -- ---xx flac 0.3579 efo2005-07-13.late.s1t01.flac
6:42.09 70934012 B --- -- ---xx flac 0.3221 efo2005-07-13.late.s1t02.flac
5:50.07 61756508 B --- -- ---xx flac 0.3493 efo2005-07-13.late.s1t03.flac
9:15.60 98043164 B --- -- ---xx flac 0.2762 efo2005-07-13.late.s1t04.flac
10:53.65 115342124 B --- -- ---xx flac 0.2821 efo2005-07-13.late.s1t05.flac
8:24.74 89079692 B --- -- ---xx flac 0.3034 efo2005-07-13.late.s1t06.flac
4:51.54 51459452 B --- -- ---xx flac 0.3606 efo2005-07-13.late.s1t07.flac
22:31.51 238436396 B --- -- ---xx flac 0.2814 efo2005-07-13.late.s1t08.flac
5:04.11 53651516 B --- -- ---xx flac 0.3358 efo2005-07-13.late.s1t09.flac
4:34.61 48477116 B --- -- ---xx flac 0.3293 efo2005-07-13.late.s1t10.flac
17:09.37 181602668 B --- -- ---xx flac 0.2856 efo2005-07-13.late.s1t11.flac
8:34.14 90702572 B --- -- ---xx flac 0.3676 efo2005-07-13.late.s1t12.flac
4:34.45 48439484 B --- -- ---xx flac 0.3434 efo2005-07-13.late.s1t13.flac
113:26.14 1200611900 B 0.3093 (13 files)

Reviews

There are no reviews yet. Be the first one to write a review.
PEOPLE ALSO FOUND
Eddie From Ohio
by Eddie From Ohio
125
0
0
Source: Neumann KM 184 > DMic-20 > DA-P1 (48.0)
Eddie From Ohio
by Eddie From Ohio
76
0
0
Source: Crest SBD > Yamaha DTR2 Pro Homedeck (44.1)
Eddie From Ohio
by Eddie From Ohio
167
0
0
Source: DSBD > Tascam DA-P1 (48.0)
Eddie From Ohio
by Eddie From Ohio
142
0
0
Source: SBD Matrix (48.0)
Eddie From Ohio
by Eddie From Ohio
90
0
0
Source: DSBD (48.0)
Eddie From Ohio
by Eddie From Ohio
86
0
0
Source: Mackie SBD > Tascam DA-P1 (48.0)
Eddie From Ohio
by Eddie From Ohio
112
0
0
Source: DSBD (48.0)
Eddie From Ohio
by Eddie From Ohio
116
0
0
Source: DSBD (House Deck) (48.0)
Eddie From Ohio
by Eddie From Ohio
104
0
0
Source: Neumann KM184s > DMIC-20 > DA-P1 (48.0) (next to SBD)
Eddie From Ohio
by Eddie From Ohio
114
0
0
Source: Neuman KM-184 > Dmic-20 > DA-P1 (48.0)